Manifesting The Mind - Psychedelics & Shamanism

  • Category Documentaries
  • Type Documentary
  • Language English
  • Total size 698.6 MB
  • Uploaded By ShinkFive
  • Downloads 398
  • Last checked 2 days ago
  • Date uploaded 1 week ago
  • Seeders 13
  • Leechers 0

Infohash : 7CB9049FBA25C8A41AFCD6CA72EC650F535B1709



Manifesting The Mind, a documentary on Psychedelics & Shamanism from 'Bouncing Bear Films' featuring interviews with renowned experts such as Daniel Pinchbeck, John Major Jenkins, Dennis McKenna, Nick Herbert, Alex Grey & Dr. Rick Strassman to name a few. This is the first release from Bouncing Bear Films which comprises of Andrew & Jennifer Rutajit and all other folks from Bouncing Bear Botanicals. 'Manifesting The Mind' gives us a broad perspective on psychedelics, how we can benefit from them and why the use of psychedelics is suppressed by the mainstream media and governments of the world.

General
Format                                  : AVI
Format/Info                           : Audio Video Interleave
File size                                : 699 MiB
Duration                                : 2 h 2 min
Overall bit rate mode            : Variable
Overall bit rate                      : 797 kb/s

Video

Format                                 : MPEG-4 Visual
Format profile                      : Advanced [email protected]
Codec ID                              : XVID
Duration                               : 2 h 2 min
Bit rate                                 : 672 kb/s
Width                                   : 560 pixels
Height                                  : 336 pixels
Display aspect ratio             : 5:3
Frame rate                           : 29.970 (30000/1001) FPS
Color space                         : YUV
Chroma subsampling           : 4:2:0
Bit depth                               : 8 bits
Scan type                             : Progressive
Compression mode              : Lossy
Bits/(Pixel*Frame)                : 0.119
Stream size                          : 589 MiB (84%)
Writing library                       : XviD 1.2.1 (UTC 2008-12-04)

Audio
Format                                  : MPEG Audio
Format version                     : Version 1
Format profile                       : Layer 3
Format settings                    : Joint stereo
Duration                                : 2 h 2 min
Bit rate mode                        : Variable
Bit rate                                  : 112 kb/s
Nominal bit rate                    : 128 kb/s
Channel(s)                            : 2 channels
Sampling rate                       : 48.0 kHz
Frame rate                            : 41.667 FPS (1152 SPF)
Compression mode              : Lossy
Stream size                           : 97.7 MiB (14%)
Alignment                              : Aligned on interleaves
Language                              : English

Files:

Manifesting the Mind
  • Manifesting the Mind.avi (698.6 MB)
  • Torrent_downloaded_from_dongphucvina.com.txt (0.0 KB)
  • Torrent_downloaded_from_Demonoid_-_www.demonoid.pw_.txt (0.1 KB)

There are currently no comments. Feel free to leave one :)

Code:

  • udp://tracker.leechers-paradise.org:6969/announce
  • udp://tracker.coppersurfer.tk:6969/announce
  • udp://tracker.opentrackr.org:1337/announce
  • udp://tracker.zer0day.to:1337/announce
  • udp://eddie4.nl:6969/announce
  • udp://inferno.demonoid.pw:3391/announce